Download Fibs Don't Lie - Day Trading Course (2018)

Fibs Don't Lie - Day Trading Course (2018)

Fibs Don't Lie - Day Trading Course (2018)
WEBRip | English | MP4 | 1920 x 1080 | AVC ~1679 Kbps | 29.970 fps
AAC | 202 Kbps | 48.0 KHz | 2 channels | 05:00:49 | 8.27 GB
Genre: eLearning Video / Trading, Stock

Learn a Reliable Way To Profit In ANY Market! Joseph Pena, Founder: Diligent day trader and Investor with 5+ years of experience trading a variety of market instruments. After experimenting with almost all patterns and indicators available, found a consistent setup with 90% accuracy. Now trading only the forex market, goes by a strict set of rules that are laid out in the course along with his strategy.

HOW IT WORKS:

- The course was created to mentor a handful of individuals with ONE on ONE sessions for FREE, after completing the -course which comes with a 90-day Challenge
- You will receive the course link immediately via email upon purchase
- The videos will describe my entire trading process and break down every single tool I use to trade daily

WHAT YOU GET?

Complete Course

The course comes with step by step videos on how to organize your charts and spot the pattern. Also, the dos and don'ts in regards to the fibonacci tool placement.
The 1st of every month, I release new videos explaining more tips and also answering frequently asked questions.
Daily Trades and MORE!

The course comes with a folder that contains screenshots of my daily trades. This helps students draw the fibs correctly. I also recommend brokers and additional tools needed to succeed.

also You can find my other last:
https://rapu.world/search/?category_slug=&query=Trading&language=&age=&author=ParRus&search=1


General
Complete name : 08. 90-day Challenge.mp4
Format : MPEG-4
Format profile : Base Media / Version 2
Codec ID : mp42 (mp41/mp42/isom)
File size : 50.7 MiB
Duration : 3 min 44 s
Overall bit rate mode : Variable
Overall bit rate : 1 892 kb/s
Movie name : 08. 90-day Challenge
Movie_More : 08. 90-day Challenge
Encoded date : UTC 2017-12-31 17:55:38
Tagged date : UTC 2017-12-31 17:56:33

Video
ID : 2
Format : AVC
Format/Info : Advanced Video Codec
Format profile : High@L4
Format settings : CABAC / 2 Ref Frames
Format settings, CABAC : Yes
Format settings, RefFrames : 2 frames
Format settings, GOP : M=1, N=30
Codec ID : avc1
Codec ID/Info : Advanced Video Coding
Duration : 3 min 44 s
Bit rate mode : Variable
Bit rate : 1 679 kb/s
Maximum bit rate : 768 kb/s
Width : 1 920 pixels
Height : 1 080 pixels
Display aspect ratio : 16:9
Frame rate mode : Constant
Frame rate : 29.970 (30000/1001) FPS
Original frame rate : 25.000 FPS
Color space : YUV
Chroma subsampling : 4:2:0
Bit depth : 8 bits
Scan type : Progressive
Bits/(Pixel*Frame) : 0.027
Stream size : 45.0 MiB (89%)
Title : Core Media Video
Encoded date : UTC 2017-12-31 17:55:38
Tagged date : UTC 2017-12-31 17:56:33
Color range : Limited
Color primaries : BT.709
Transfer characteristics : BT.709
Matrix coefficients : BT.709

Audio
ID : 1
Format : AAC
Format/Info : Advanced Audio Codec
Format profile : LC
Codec ID : mp4a-40-2
Duration : 3 min 44 s
Source duration : 3 min 44 s
Bit rate mode : Constant
Bit rate : 202 kb/s
Nominal bit rate : 256 kb/s
Channel(s) : 2 channels
Channel positions : Front: L R
Sampling rate : 48.0 kHz
Frame rate : 46.875 FPS (1024 SPF)
Compression mode : Lossy
Stream size : 5.40 MiB (11%)
Source stream size : 5.40 MiB (11%)
Title : Core Media Audio
Language : English
Encoded date : UTC 2017-12-31 17:55:38
Tagged date : UTC 2017-12-31 17:56:33

Screenshots









Download link:

uploadgig_com:
https://uploadgig.com/file/download/86560B14d04Ee235/3jc29.Fibs.Dont.Lie..Day.Trading.Course.2018.part01.rar
https://uploadgig.com/file/download/04466829d6cA7754/3jc29.Fibs.Dont.Lie..Day.Trading.Course.2018.part02.rar
https://uploadgig.com/file/download/0866a4af2f88AadF/3jc29.Fibs.Dont.Lie..Day.Trading.Course.2018.part03.rar
https://uploadgig.com/file/download/aC55f758fc6b0993/3jc29.Fibs.Dont.Lie..Day.Trading.Course.2018.part04.rar
https://uploadgig.com/file/download/d169736014822363/3jc29.Fibs.Dont.Lie..Day.Trading.Course.2018.part05.rar
https://uploadgig.com/file/download/201a0c51b0103A56/3jc29.Fibs.Dont.Lie..Day.Trading.Course.2018.part06.rar
https://uploadgig.com/file/download/996c87689437de8B/3jc29.Fibs.Dont.Lie..Day.Trading.Course.2018.part07.rar
https://uploadgig.com/file/download/04FD786C8Cb86E20/3jc29.Fibs.Dont.Lie..Day.Trading.Course.2018.part08.rar
https://uploadgig.com/file/download/869f92edaC9E9fc0/3jc29.Fibs.Dont.Lie..Day.Trading.Course.2018.part09.rar

rapidgator_net:
https://rapidgator.net/file/47c67c031f58bb3267a69d1d40669d0a/3jc29.Fibs.Dont.Lie..Day.Trading.Course.2018.part01.rar.html
https://rapidgator.net/file/abc45223a6c62e30f67051d25e3aced4/3jc29.Fibs.Dont.Lie..Day.Trading.Course.2018.part02.rar.html
https://rapidgator.net/file/eddbc0b8cd307c095d0a5caceb197d8e/3jc29.Fibs.Dont.Lie..Day.Trading.Course.2018.part03.rar.html
https://rapidgator.net/file/5db070c191ae3611cf901c9328a99e4f/3jc29.Fibs.Dont.Lie..Day.Trading.Course.2018.part04.rar.html
https://rapidgator.net/file/93d1ff7c717bfc3fb01860ef09c2bd59/3jc29.Fibs.Dont.Lie..Day.Trading.Course.2018.part05.rar.html
https://rapidgator.net/file/ffe4052a61b1a9bb3427cae62cbd14c9/3jc29.Fibs.Dont.Lie..Day.Trading.Course.2018.part06.rar.html
https://rapidgator.net/file/47986a0fc406547e9aaf0ff6e40706d2/3jc29.Fibs.Dont.Lie..Day.Trading.Course.2018.part07.rar.html
https://rapidgator.net/file/817524ba17c7bb9db7f217a11de84dab/3jc29.Fibs.Dont.Lie..Day.Trading.Course.2018.part08.rar.html
https://rapidgator.net/file/9e3a766ec2accfcb1e32dcb8984814dd/3jc29.Fibs.Dont.Lie..Day.Trading.Course.2018.part09.rar.html

nitroflare_com:
http://nitroflare.com/view/F8913646E375A7E/3jc29.Fibs.Dont.Lie..Day.Trading.Course.2018.part01.rar
http://nitroflare.com/view/571402328D48AA4/3jc29.Fibs.Dont.Lie..Day.Trading.Course.2018.part02.rar
http://nitroflare.com/view/51ADAB4F54C7304/3jc29.Fibs.Dont.Lie..Day.Trading.Course.2018.part03.rar
http://nitroflare.com/view/D0EF0866320178F/3jc29.Fibs.Dont.Lie..Day.Trading.Course.2018.part04.rar
http://nitroflare.com/view/67D075843E3D504/3jc29.Fibs.Dont.Lie..Day.Trading.Course.2018.part05.rar
http://nitroflare.com/view/7B6AFDBCF5A8882/3jc29.Fibs.Dont.Lie..Day.Trading.Course.2018.part06.rar
http://nitroflare.com/view/79AD6D28913300D/3jc29.Fibs.Dont.Lie..Day.Trading.Course.2018.part07.rar
http://nitroflare.com/view/F713C9AAA13E248/3jc29.Fibs.Dont.Lie..Day.Trading.Course.2018.part08.rar
http://nitroflare.com/view/54D5A798AEF2CD3/3jc29.Fibs.Dont.Lie..Day.Trading.Course.2018.part09.rar


Links are Interchangeable - No Password - Single Extraction
Add comment

Add comment

reload, if the code cannot be seen